#TITLE:Night Of Fire;
#SUBTITLE:;
#ARTIST:.....;
#TITLETRANSLIT:Night Of Fire;
#SUBTITLETRANSLIT:;
#ARTISTTRANSLIT:.....;
#CREDIT:Thu Bay , 15-11-2008;
#BANNER:Night Of Fire-bn.png;
#BACKGROUND:Night Of Fire-bg.png;
#LYRICSPATH:;
#CDTITLE:pm4cd.png;
#MUSIC:Night Of Fire.mp3;
#OFFSET:-0.020;
#SAMPLESTART:81.180;
#SAMPLELENGTH:20.000;
#SELECTABLE:YES;
#BPMS:0.000=155.150;
#STOPS:;
#BGCHANGES:;
// cache tags:
#FIRSTBEAT:16.000;
#LASTBEAT:780.000;
#SONGFILENAME:Songs/Music V.I.P ^_^/Night Of Fire/Night Of Fire.sm;
#HASMUSIC:1;
#HASBANNER:1;
#MUSICLENGTH:301.139;
// end cache tags

//---------------dance-single - ----------------
#NOTES:
     dance-single:
     :
     Hard:
     16:
     1.000,1.000,1.000,0.206,0.565,1699.000,692.000,62.000,0.000,52.000:
0000
0000
0000
0000
,
0000
0000
0000
0000
,
0000
0000
0000
0000
,
0000
0000
0000
0000
,
2200
0000
3300
0000
,
2020
0000
3232
0000
,
1313
0100
0000
1001
0000
0110
0000
0101
,
0000
0011
0000
1010
0000
0110
0000
1100
,
0020
0000
0030
0000
,
2002
0000
3223
0000
,
1330
0110
0000
1100
0000
1010
0000
1001
,
1100
0000
0000
0011
0000
0000
1100
0000
0000
0011
0000
0000
1100
0000
0011
0000
,
0121
1000
1100
0001
1031
0100
1010
0100
,
0121
0001
1100
1000
1231
1000
0011
1000
,
1310
0000
0100
0000
1000
0100
0001
0010
0100
1000
0001
0010
1000
0100
0001
0010
,
1000
0100
0001
0010
0001
0010
1000
0100
0010
0001
0100
1000
0010
0001
1000
0100
,
1210
0010
0011
0010
1301
0001
0011
0100
,
2110
0100
0011
0100
3112
0100
1100
0010
,
1003
0000
0100
0000
0001
1000
0100
0001
0010
1000
0100
0010
0001
1000
0100
0010
,
1100
0010
0001
1000
0110
0001
1010
0100
0011
1000
0100
0010
0101
1000
0110
0010
,
2101
0010
0100
0001
0010
0100
0001
0010
0100
0010
0001
0100
0001
0010
0100
0001
,
3211
1000
0001
0010
1000
0010
0001
1000
0010
0001
1000
0010
1000
0001
0010
1000
,
1321
0001
0100
1000
0001
0100
1000
0001
0100
1000
0001
0100
1000
0001
0100
1000
,
0130
0001
1000
0010
0100
0001
1000
0010
0100
0001
1000
0010
0100
0001
1000
0010
,
1100
0001
0100
0010
1001
0100
0010
0100
0011
1000
0100
0010
1010
0100
0001
0010
,
1001
0010
1000
0100
0011
1000
0100
1000
0110
0001
1000
0100
0101
1000
0010
0100
,
0011
0100
0001
1000
0110
0001
1000
0001
1100
0010
0001
1000
1010
0001
0100
1000
,
0011
0000
0000
0110
0000
0000
1100
0000
0000
0110
0000
0000
0011
0000
1100
0000
,
0022
0000
0000
0000
1133
0010
0101
0010
,
1100
0000
0001
0000
0101
0000
0010
0000
1000
0100
0001
0010
1000
0100
0010
0001
,
0100
0010
1000
0100
0001
0010
1000
0100
1010
0000
0100
0000
0011
0000
1000
0000
,
0101
0000
0010
0000
1100
0000
0010
0000
0100
1000
0010
0100
0001
0010
1000
0100
,
0010
0001
0100
1000
0100
0010
1000
0010
0101
0000
0010
0000
1100
0000
0001
0000
,
0101
0000
0010
0000
1010
0000
0100
0000
0100
1000
0010
0100
0001
0010
1000
0100
,
0100
0010
0010
0001
0001
0010
0010
0100
1001
0000
0010
0000
1100
0000
0001
0000
,
0110
0000
1000
0100
0001
0010
1000
0100
0011
0001
0010
0101
1000
0100
0101
0010
,
1000
0110
0000
0000
0011
0000
1100
0000
0011
0000
1000
0000
0110
0000
0001
0000
,
1010
0100
0101
0010
0011
1000
1100
0001
,
1010
0100
0011
1000
0110
0001
1100
0100
,
0001
0100
0010
1000
0100
0001
0010
1000
0100
1000
0001
0010
0100
1000
0010
0001
,
0100
1000
0001
0010
1000
0100
0001
0010
1010
0000
0100
0000
0011
0000
1000
0000
,
0101
1000
0110
0001
1010
0100
0011
1000
,
0110
0001
1010
0100
1001
0010
0101
0010
,
1010
0000
0100
0000
1001
0000
0100
0000
0011
1000
0001
0110
0001
1000
0011
0100
,
1010
0100
0001
1000
0110
0000
0011
0000
1100
0000
0010
0000
0101
0000
0010
0000
,
1100
0001
0110
0001
1001
0100
0011
1000
,
0101
0010
1100
0001
0011
0100
1010
0100
,
0011
1000
0101
0010
1010
0100
1100
0001
,
0110
1000
0011
1100
0110
0001
1010
0100
,
0011
1000
0101
0010
1100
0001
0101
0010
,
1001
0100
0011
1000
0202
0000
0000
0000
,
2323
0000
0000
0101
3030
0000
0110
0011
,
1100
0022
0000
0000
1100
0100
1133
0001
,
1100
0001
0110
0001
1001
0100
0011
1000
,
0101
0010
1100
0001
0011
0100
1010
0100
,
0011
1000
0101
0010
1010
0100
1100
0001
,
0011
0100
1001
0110
0110
0001
1100
0010
,
0101
1000
0011
0100
1100
0001
1010
0001
,
1100
0010
0101
1000
1010
0001
0011
0100
,
1001
0100
0011
1100
0101
1010
0011
1100
,
0101
0000
1010
0000
0101
1010
0101
1010
0011
0000
0100
0000
1010
0000
0100
0000
,
1100
0001
1100
0001
0110
0001
1001
0100
,
0011
1000
0101
0010
1100
0001
0011
0100
,
1010
0100
0011
1000
0101
0010
1010
0100
,
1100
0001
0011
0100
1001
0100
0110
0001
,
1100
0010
0101
1000
0011
0100
1100
0001
,
1010
0001
1100
0010
0101
1000
1010
0001
,
0011
0100
1010
0101
0000
1010
0101
0011
,
1100
0000
0000
0000
0011
0110
1100
0110
1001
0000
0100
0000
0011
0000
1000
0000
,
0110
0000
1000
0010
0011
0100
1000
0010
0011
0100
0010
1000
0110
0010
0001
1000
,
0011
1000
0100
0010
1001
0100
0010
0100
0011
0000
1000
0000
0101
0000
1000
0001
,
0110
0000
1000
0000
0011
0000
0100
1000
0110
0001
0010
1000
0011
0100
0001
1000
,
0110
1000
0001
0010
0101
0010
1000
0010
0101
0000
0010
0000
1100
0000
0001
0000
,
0110
0001
1000
0010
0101
0010
1000
0100
0011
1000
0100
0001
1100
0001
0010
0100
,
1010
0100
0011
1000
0110
0001
1100
0010
,
0101
0000
1000
0000
0110
0000
0001
0000
1100
0000
0000
0101
0000
0000
1010
0000
,
0000
0101
0000
0000
0011
0000
1100
0000
0011
0000
0100
0000
0110
0000
0010
0000
,
1010
0001
0101
1000
0011
0100
1100
0010
,
1010
0100
0011
0001
0110
1000
1100
0010
,
0001
0010
0100
0001
0010
0001
0100
1000
0010
0100
0010
1000
0100
0010
0100
0001
,
0100
1000
0010
0001
0100
1000
0010
0001
0101
0000
0100
0000
0011
0000
1000
0000
,
0101
0010
0110
0001
1010
0001
0011
0100
,
0110
0001
1010
0100
1001
0100
0101
0010
,
1010
0000
0001
0000
1001
0000
0100
0000
0011
0100
0001
1010
0100
0001
0110
0001
,
1100
0010
0001
0100
0011
0000
0110
0000
1100
0000
0010
0000
0101
0000
0010
0000
,
1100
0001
0110
0001
1001
0100
0011
1000
,
0101
0010
1100
0001
0011
0100
1010
0100
,
0011
1000
0101
0010
1010
0100
1100
0001
,
0110
1000
0011
1100
0110
0001
1010
0100
,
0011
1000
0101
0010
1100
0001
0101
0010
,
1001
0100
0011
1000
0202
0000
0000
0000
,
2323
0000
0000
0101
3030
0000
0110
0011
,
1100
0022
0000
0000
1100
0100
1133
0001
,
1100
0001
0110
0001
1001
0100
0011
1000
,
0101
0010
1100
0001
0011
0100
1010
0100
,
0011
1000
0101
0010
1010
0100
1100
0001
,
0011
0100
1001
0110
0110
0001
1100
0010
,
0101
1000
0011
0100
1100
0001
1010
0001
,
1100
0010
0101
1000
1010
0001
0011
0100
,
1001
0100
0011
1100
0101
1010
0011
1100
,
0101
0000
1010
0000
0101
1010
0101
1010
0011
0000
1000
0000
0110
0000
0001
0000
,
1010
0010
0101
0010
1100
0010
1001
0010
,
0101
0010
1001
0010
1100
0010
0011
0100
,
1100
0010
0110
0001
1010
0001
1100
1000
,
0101
0001
0110
0100
1100
0010
0101
0010
,
1001
0010
0101
0100
1001
0010
1010
0100
,
0011
1000
1100
0001
0110
1000
0011
0100
,
1001
0100
1010
0101
0000
1010
0101
0011
,
1100
0000
0000
0000
1100
1010
0101
0011
1101
0000
0010
0000
0101
0000
0010
0000
,
1100
0000
0001
1000
1100
0010
0001
1000
1100
0010
0100
1000
0101
0010
1000
0010
,
1001
0100
1000
0100
1010
0001
0010
0100
1001
0000
0010
0000
0101
0000
0001
0010
,
1100
0000
0100
0000
1001
0000
0100
0001
1010
0001
0100
0001
0110
1000
0010
0001
,
1010
0100
1000
0010
1100
0001
1000
0001
1010
0000
0100
0000
1001
0000
0001
0000
,
1100
0010
0100
0001
1100
0010
0001
1000
0110
1000
0100
0001
1010
0100
0001
0010
,
1001
0100
0011
1000
0110
0001
1100
0010
,
0101
0000
1000
0000
0110
0000
0001
0000
1100
0000
0000
0101
0000
0000
1010
0000
,
0000
0101
0000
0000
0011
0000
1100
0000
0011
0000
0000
0000
0011
0000
0000
0000
,
0011
0100
0011
0000
1100
0001
1100
0010
,
1100
0001
1100
0000
0101
1000
0101
0010
,
0101
1000
0101
0010
0000
1000
1010
1000
,
1001
0000
0110
0110
1001
0000
1001
0000
,
1001
0010
1001
0000
0110
1000
0110
0001
,
0110
1000
0110
0000
1010
0001
1010
0100
,
1010
0001
1010
0101
1010
0101
0011
0011
,
0011
0000
0110
0000
1100
0101
1010
0110
1101
0000
0010
0000
0101
0000
0010
0000
,
1001
0010
1100
0010
1001
0100
0101
0010
,
1010
0001
1100
1000
0101
0100
0110
1000
,
0101
0010
1100
0001
1001
0010
1100
0010
,
0110
0100
1010
0101
0101
1000
0110
0001
,
0011
0100
0110
1000
0101
0010
1010
0100
,
0101
0010
1100
0010
1001
0010
0101
0100
,
1001
0010
1100
0110
0011
0110
1001
0101
,
1010
0000
0101
0000
0011
0110
1100
1001
0111
0000
0100
0000
1010
0000
0100
0000
,
1100
0001
1100
0001
0110
0001
1001
0100
,
0011
1000
0101
0010
1100
0001
0011
0100
,
1010
0100
0011
1000
0101
0010
1010
0100
,
1100
0001
0011
0100
1001
0100
0110
0001
,
1100
0010
0101
1000
0011
0100
1100
0001
,
1010
0001
1100
0010
0101
1000
1010
0001
,
0011
0100
1010
0101
0000
1010
0101
0011
,
1100
0000
0000
0000
0011
0110
1100
0110
1001
0000
0100
0000
0011
0000
1000
0000
,
0110
0000
0001
0010
1010
0100
0001
0010
1010
0100
1000
0010
0011
0100
1000
0010
,
0101
1000
0100
0010
1001
0010
1000
0001
0110
0000
0010
0000
1100
0000
0001
0100
,
1010
0000
0100
0000
1001
0000
0100
0001
1010
0100
1000
0001
1100
0010
1000
0001
,
1100
0001
1000
0010
1001
0100
0001
1000
1100
0000
0010
0000
0101
0000
0010
0000
,
1001
0100
1000
0001
0110
1000
0001
0010
1100
0010
0100
0001
0110
1000
0001
0100
,
1001
0010
0101
0010
1100
0001
0110
1000
,
1010
0000
0100
0000
0011
0000
0100
0000
1100
0000
0000
0110
0000
0000
0011
0000
,
0000
0110
0000
0000
1010
0000
1100
0000
2000
0000
0000
0000
0000
0000
0000
0000
,
0000
0000
3020
0000
,
0032
0000
0000
0000
0000
0000
0000
0000
0103
0000
0010
0000
1000
0100
0010
0100
,
1000
0100
0010
0001
0010
0000
0100
0000
1000
0010
0100
0001
0010
0100
1000
0010
,
0100
0001
0010
0100
0010
0001
0010
0100
0200
0000
0000
0000
0000
0000
0000
0000
,
0000
0000
0320
0000
,
2030
0000
0000
0000
0000
0000
0000
0000
3100
0000
0010
0000
0001
0010
0100
0001
,
0010
1000
0100
0001
1000
0000
0010
0000
1000
0100
0010
0100
0010
0001
0010
0100
,
0010
0100
1000
0100
0010
0100
0010
0001
1010
0000
0100
0000
1001
0000
0010
0000
,
1100
0100
0101
0010
1001
0001
1100
0100
,
0011
0100
0101
0010
1010
0001
0110
0100
,
0011
1000
0110
0001
1010
0010
1001
0001
,
0110
0010
0011
1010
1101
0001
1010
0100
,
0011
1000
0110
0001
0011
1000
0110
0100
,
1010
0100
0101
0001
0220
0000
0000
0000
,
2332
0000
0000
0110
3003
0110
1001
1010
,
1100
0000
0022
0000
0000
0000
1100
1100
1133
0000
1000
0000
0110
0000
0001
0000
,
1010
0100
0101
0010
0011
1000
1100
0001
,
1010
0100
0011
1000
0110
0001
1100
0100
,
0001
0100
0010
1000
0100
0001
0010
1000
0100
1000
0001
0010
0100
1000
0010
0001
,
0100
1000
0001
0010
1000
0100
0001
0010
1010
0000
0100
0000
0011
0000
1000
0000
,
0101
1000
0110
0001
1010
0100
0011
1000
,
0110
0001
1010
0100
1001
0010
0101
0010
,
1010
0000
0100
0000
1001
0000
0100
0000
0011
1000
0001
0110
0001
1000
0011
0100
,
1010
0100
0001
1000
0110
0000
0011
0000
0020
0000
0000
0000
1000
0000
0100
0000
,
0000
0001
0000
1000
0000
0001
0100
1000
,
0100
1000
0232
0000
,
2323
0000
3232
0000
,
2323
0000
0000
0000
3032
0000
0010
0100
,
0000
1000
0000
0010
0000
0100
1000
0100
,
0010
0100
0223
0000
,
2332
0000
0000
0110
3003
0100
0010
1000
,
0010
0002
0000
0000
1103
0000
0101
0000
,
1001
0000
0100
0000
0011
0000
0100
0000
1010
0000
0100
0001
1001
0010
0100
0001
,
1001
0100
1000
0001
1010
0010
0001
0100
0011
1000
0100
0010
1001
0010
0100
1000
,
0101
0000
0010
0000
1100
0000
1000
0100
0011
0000
0100
0000
1010
0000
0010
0100
,
0011
1000
0100
0001
1010
0100
0001
1000
0011
1000
0010
1000
0110
0001
1000
0010
,
1001
0000
0010
0000
0101
0000
1000
0000
0011
0100
0001
1000
0110
0001
0100
1000
,
0110
0001
1000
0010
1001
0100
0001
1000
0011
0000
0100
0000
1010
0000
0100
0000
,
0101
0010
1100
1000
0101
0010
1100
1000
,
0010
0100
0010
0100
0010
0100
0010
0000
0011
0000
0000
0000
1100
0101
0110
1010
,
1101
0010
1000
0100
0001
0010
0001
0100
,
1010
0001
0010
0100
0001
1000
0010
0100
,
1001
0010
0100
0010
0100
1000
0010
0100
,
0011
0001
1000
0100
0010
0100
1000
0001
,
1010
0010
0100
0001
1000
0010
0001
0100
,
2010
0000
0000
0000
,
3000
0000
0000
0000
;

//---------------dance-single - ----------------
#NOTES:
     dance-single:
     :
     Medium:
     1:
     0.000,0.000,0.000,0.000,0.000,0.000,0.000,0.000,0.000,0.000:
0000
0000
0000
0000
;
